fc2ブログ

サンワサプライのビデオキャプチャ(400-MEDI029)を買った

MEDI029_000.jpg

ビデオ出力のゲームの動画を撮りたいなと思った時、これまでずっとパイオニアのDVR-540H経由で録画して、それをまたDVDに焼いて、そのDVDをPCで取り込んでとかしてたりしてたのだけれど、ちょっと一瞬キャプチャしたいとかそういう時にはもう面倒でやってられません

最近、キャプチャも安くなってきたので、スタンドアロンでお手軽に使えるものないかなと思って探したところで

もうコンポジットビデオ入力というもの自体がニッチになってきて選択肢で迷うより、対応品を数える方が難しくなっている模様

そんな中でサンワサプライの400-MEDI029というものが、テレビに繋げなくてもいいし目的に合致

同型で同じものが無いか探したところ(その時は)見当たらなかったので、オリジナルの企画商品なのかなと思い楽天にて購入
※おそらくTADREC-Sというのと同等

何というかこの手の製品で日本語が書かれていると凄く安心する

MEDI029_001.jpg

MEDI029_002.jpg

MEDI029_004.jpg

MEDI029_005.jpg

MEDI029_006.jpg

早速、メガドライブを繋いで試してみるも液晶に映る画像もHDMI出力される画像もえらく汚い

MEDI029_028.jpg

こちらはまあこんなもんか
MEDI029_009.jpg

MEDI029_012.jpg

MEDI029_015.jpg

さてキャプチャの方はどんなものかと色々と繋げて録ってみる

録画した動画をMPC-HCでスクリーンショットしたもの
↓ ↓ ↓

メガドライブだったと思ったけどファイル名見るとワンダーメガ2だこれ
WM2_400-MEDI034.jpg

メガドライブ1
MD0_400-MEDI034.jpg

ニューファミコンのつもりでよく考えたらNESRGB改造のビデオ出力だった
NES_RGB1_400-MEDI034.jpg

上に同じ
NESRGB0_400-MEDI034.jpg

マスターシステム
SMS_400-MEDI034.jpg

サターン
SS_400-MEDI034.jpg

スーパーファミコン
SFC_400-MEDI034.jpg

MVS
MVS_400-MEDI034.jpg

ナムコSYSTEM12(インターレース)
SYS12I_400-MEDI034.jpg

ナムコSYSTEM12(ノンインタレース)
SYS12NI_400-MEDI034.jpg

どれも画面下部から斜め上に向かって画面にぶれが見られます

そしてシステム12のインターレース表示だけその表示が解消されてる

う~ん、アマゾンだったら製品の不良で送り返したところだけど・・

製品の不具合かそんなもんなのかわからないので、念のため画像を添えてサポートに連絡したところ

製品の不具合の可能性があるので返金か交換品を送るとのこと

同じ結果になりそうという危惧はあるものの、他に代わるものも見つけられないため交換をお願いする

対応が早い

すぐ来た

そして同じ症状が

試しにビデオデッキからの出力を確認してみると

DVR_400-MEDI034.jpg

問題なし

これはあれですね、古いゲーム機というのが想定外のイレギュラーなもので

おそらく疑似NTSC的なものには対応できていないんですな

しゃーない、でも困ったな

DVD,BD化されてないLDのキャプチャにでも使うか

一応、サポートの方には到着したこと症状は変わらなかったこと、おそらく古いゲーム機には対応していないことを伝えました

「返品受けます」

え?いいの?

本当にいいの?

申し訳ないですがお願いします

ということでもう手元にはありません

電源差しっぱじゃないと日時保持がされない以外は、悪い機械じゃないんだけどな

自分ところで作ってる製品じゃないとゲーム機に対応した改良品なんて出ないかな?

しかしまた、らしきものを探さなければならなくなった

ほんで今度はアリエクスプレスでこんなものを注文してしまいました

EZCAP180aliSS.jpg

EZCAP_033.jpg

いつ来るんだ~、と思っていたらアマゾンでも売ってるぞこれ、しかもUSBメモリ付き

そしてアリより安い

EZCAP_034.jpg

くっそー Amazon.co.jp での取り扱い開始日2022/1/9 か


というものが一昨々日くらいに届いたので改めてレビューします
スポンサーサイト



Basicolor ARX326

なんかよくわからない安価なキャプチャがセールしてたので買ってみました

basiclolor.jpg

聞いたこともない会社だし、型番もよくわからんの

注文した後で検索などしてみると

やっぱりまあ安いから買ってみた系の先人が居りました(商品は別のものです)

ARX326_a.jpg

【レビュー】安いキャプチャーボード「Basicolor321」を買ってみた!

ARX326_b.jpg

私も同じ感想でしたw

届いたものを見てみると

ARX326_47.jpg

ARX326_03.jpg

謎のメイドインチャイナアピール

時代は変わったのか?

内容物は

封入された本体
ARX326_50.jpg
ARX326_37.jpg

コードが短い12Vの電源アダプタ
ARX326_28.jpg

本物かよくわからないサンディスクのUSBメモリ
ARX326_48.jpg

一応日本語も入っているマニュアル(HSV?)
ARX326_41.jpg
ARX326_12.jpg

以上

封を開けてみると本体のアクリル?にはよく新品の表面に残っているようなシートもなく何だか汚い

ちょっと触っていたら案の定で

ARX326_26.jpg

指紋掌紋べったべた

ああ、私が嫌いなタイプだ

あと、わかっていたけどスイッチが明確な物理でないのは気持ち悪いですね

とにかく指紋が残ると気になって気になって仕方がないのでダイソーでシート買ってきました

ARX326_15.jpg

ARX326_44.jpg

綺麗に貼れなかったけど、よしとしよう

ARX326_06.jpg

裏面の分も買ってこないとなあ・・

付属のUSBメモリをPCに差してみると
まず、正常じゃない的なダイアログが出ました

ARX326-u.jpg

そして中に色々と入っています

ARX326-usb0.jpg

動画は

ARX326-usb1.jpg

何かよくわからんので、マニュアルのPDFだけ保存してフォーマット

ちょっと録画してみてPCに差すと認識しない

え?

ディスクの管理画面では存在してますね

クイックフォーマットが駄目だったか
改めてフォーマット

以後、不具合は出ていないです、今のところ

録画したファイルはRecordというフォルダの中にRecoord_*というファイル名で保存されます
時計がないのでタイムスタンプはなし

ARX326-usb3.png

どこでカウントしているのか振られた数字は該当ファイルを消しても戻りません
ひたすら+1で生成されていきます

ARX326-usb4.jpg


電波のXCAPTURE-MINI、AverMediaのAVT-C875それぞれと同じ動画を撮ってみました
パススルーなので直列繋ぎしました
AVT-C875の方は下流にすると動作しませんでした
録画タイミングの完全同期は無理なのでほぼ同じ区間を切り出しです


◆ タイムパイロット'84 (AV-7000>フレームマイスター)

ARX326 (720p) 213,444KB

General
Complete name :
Format : MPEG-4
Format profile : Base Media / Version 2
Codec ID : mp42
File size : 208 MiB
Duration : 2mn 24s
Overall bit rate mode : Variable
Overall bit rate : 12.1 Mbps
Encoded date :
Tagged date :

Video
ID : 1
Format : AVC
Format/Info : Advanced Video Codec
Format profile : Baseline@L3.1
Format settings, CABAC : No
Format settings, ReFrames : 1 frame
Format settings, GOP : M=1, N=120
Codec ID : avc1
Codec ID/Info : Advanced Video Coding
Duration : 2mn 24s
Bit rate : 11.9 Mbps
Width : 1 280 pixels
Height : 720 pixels
Display aspect ratio : 16:9
Frame rate mode : Variable
Frame rate : 60.000 fps
Minimum frame rate : 59.960 fps
Maximum frame rate : 60.000 fps
Color space : YUV
Chroma subsampling : 4:2:0
Bit depth : 8 bits
Scan type : Progressive
Bits/(Pixel*Frame) : 0.216
Stream size : 205 MiB (98%)
Encoded date :
Tagged date :

Audio
ID : 2
Format : AAC
Format/Info : Advanced Audio Codec
Format profile : LC
Codec ID : 40
Duration : 2mn 23s
Duration_FirstFrame : -2ms
Bit rate mode : Variable
Bit rate : 192 Kbps
Channel(s) : 2 channels
Channel positions : Front: L R
Sampling rate : 48.0 KHz
Compression mode : Lossy
Stream size : 3.25 MiB (2%)
Title : Stereo
Encoded date :
Tagged date :

AVT-C875 (720p) 141,865KB

averutil.jpg
その時は8Mbpsが適当と思いましたが12Mbpsのが近かったですね
General
Complete name :
Format : MPEG-4
Format profile : Base Media / Version 2
Codec ID : mp42
File size : 139 MiB
Duration : 2mn 24s
Overall bit rate mode : Variable
Overall bit rate : 8 041 Kbps
Encoded date :
Tagged date :

Video
ID : 1
Format : AVC
Format/Info : Advanced Video Codec
Format profile : High@L4
Format settings, CABAC : No
Format settings, ReFrames : 1 frame
Format settings, GOP : M=1, N=30
Codec ID : avc1
Codec ID/Info : Advanced Video Coding
Duration : 2mn 24s
Bit rate : 7 783 Kbps
Width : 1 280 pixels
Height : 720 pixels
Display aspect ratio : 16:9
Frame rate mode : Variable
Frame rate : 60.000 fps
Minimum frame rate : 59.960 fps
Maximum frame rate : 60.040 fps
Color space : YUV
Chroma subsampling : 4:2:0
Bit depth : 8 bits
Scan type : Progressive
Bits/(Pixel*Frame) : 0.141
Stream size : 134 MiB (97%)
Encoded date :
Tagged date :
Color range : Limited
Color primaries : BT.709
Transfer characteristics : BT.709
Matrix coefficients : BT.709

Audio
ID : 2
Format : AAC
Format/Info : Advanced Audio Codec
Format profile : LC
Codec ID : 40
Duration : 2mn 24s
Duration_FirstFrame : -17ms
Bit rate mode : Variable
Bit rate : 254 Kbps
Channel(s) : 2 channels
Channel positions : Front: L R
Sampling rate : 48.0 KHz
Compression mode : Lossy
Stream size : 4.37 MiB (3%)
Title : Stereo
Encoded date :
Tagged date :


◆ レトロフリーク

ARX326 (720P) 394,465KB

General
Complete name :
Format : MPEG-4
Format profile : Base Media / Version 2
Codec ID : mp42
File size : 385 MiB
Duration : 4mn 25s
Overall bit rate mode : Variable
Overall bit rate : 12.2 Mbps
Encoded date :
Tagged date :

Video
ID : 1
Format : AVC
Format/Info : Advanced Video Codec
Format profile : Baseline@L3.1
Format settings, CABAC : No
Format settings, ReFrames : 1 frame
Format settings, GOP : M=1, N=120
Codec ID : avc1
Codec ID/Info : Advanced Video Coding
Duration : 4mn 25s
Bit rate : 12.0 Mbps
Width : 1 280 pixels
Height : 720 pixels
Display aspect ratio : 16:9
Frame rate mode : Variable
Frame rate : 60.000 fps
Minimum frame rate : 59.960 fps
Maximum frame rate : 60.040 fps
Color space : YUV
Chroma subsampling : 4:2:0
Bit depth : 8 bits
Scan type : Progressive
Bits/(Pixel*Frame) : 0.217
Stream size : 379 MiB (98%)
Encoded date :
Tagged date :

Audio
ID : 2
Format : AAC
Format/Info : Advanced Audio Codec
Format profile : LC
Codec ID : 40
Duration : 4mn 25s
Duration_FirstFrame : -11ms
Bit rate mode : Variable
Bit rate : 192 Kbps
Channel(s) : 2 channels
Channel positions : Front: L R
Sampling rate : 48.0 KHz
Compression mode : Lossy
Stream size : 6.00 MiB (2%)
Title : Stereo
Encoded date :
Tagged date :

XCAPTURE-MINI 387,527KB

General
Complete name :
Format : MPEG-4
Format profile : Base Media
Codec ID : isom
File size : 378 MiB
Duration : 4mn 24s
Overall bit rate mode : Variable
Overall bit rate : 12.0 Mbps

Video
ID : 2
Format : AVC
Format/Info : Advanced Video Codec
Format profile : Baseline@L3.1
Format settings, CABAC : No
Format settings, ReFrames : 1 frame
Format settings, GOP : M=1, N=120
Codec ID : avc1
Codec ID/Info : Advanced Video Coding
Duration : 4mn 24s
Bit rate : 11.8 Mbps
Width : 1 280 pixels
Height : 720 pixels
Display aspect ratio : 16:9
Frame rate mode : Constant
Frame rate : 60.000 fps
Color space : YUV
Chroma subsampling : 4:2:0
Bit depth : 8 bits
Scan type : Progressive
Bits/(Pixel*Frame) : 0.214
Stream size : 372 MiB (98%)
Language : English

Audio
ID : 1
Format : AAC
Format/Info : Advanced Audio Codec
Format profile : LC
Codec ID : 40
Duration : 4mn 24s
Bit rate mode : Variable
Bit rate : 192 Kbps
Channel(s) : 2 channels
Channel positions : Front: L R
Sampling rate : 48.0 KHz
Compression mode : Lossy
Stream size : 5.96 MiB (2%)
Language : English


すぐにぶっ壊れるかもしれないし
使い続けてみないと製品の信頼性はわからないですけど
この値段、単純にHDMI録画がしたいってだけなら特に不都合はないのかな?
中華製品は個体の当たりはずれで印象が左右されてしまいますからね
高解像度で最新機を、とかPCでって話になると他のレビューを探した方がよいかと思います
追:ちょっと勘違いしてましたがPCへのキャプチャ機能は無いです
  ですから生配信とかそういう用途には使えません
  比較動画用に使ったAVT-C875は可、XCAPTURE-MINIは不可です
  HDMI入力にしか対応していないあたり、製品としてはXCAPTURE-MINIに近いものでしょうか
  マイク入力はあるので実況録画はできるようですが、まず試すことはないでしょう

便利点はUSBメモリが使えるってところ
記録メディアを頻繁に出し入れしようとする場合にはSDカードより圧倒的にいいです
12Vの電源入力は環境によってはUSB端子から供給できないのが利便性にかけるかな
まあ安定はしてるのかもしれんけど、アダプタのコードが短いのはなんとかしてくれ
あとやっぱり録画スイッチは不便ですね、3秒押し続けなければいけない
短時間押すだけだと720p, 1080pの切り替えになってしまうのでご操作にもつながります
録画開始も多少ラグがあるような

TreasLinの方はロゴが違う以外に同じ製品だとして
商品説明にUSBメモリ付属の記載がないんですよね
Basicolor独自の売りなのか、記載ないだけでついてくるのか
まあ、どちらも頻繁にセールしてるっぽいんで
とりあえずという感じで欲しい場合はセール待つのが手かと思います

 

ブレイゾン

出所不明

Hentai Columns (PD) とかいうタイトルでデータが出回っているようだけど

誰かが作ってネットにアップしたものを勝手にカートリッジにした感じ?

HentaiColumns (1)

はい、飾りですね
HentaiColumns (2)

なかみ
HentaiColumns (4)

なかみ
HentaiColumns (5)

AM29F800?
HentaiColumns (6)


Youtubeにアップしたら怒られちゃった


tag : スーパーファミコンパチモノ

フライトレイン

フライトレインの動画を撮り直しました

死にまくりですが

テーマ : ゲーム動画
ジャンル : ゲーム

tag : アーケード基板

SC-3000 Survivors Cartridge Case Project

自作カートリッジケースすげー

自分がケースだけ欲しい時は

チャンピオンサッカー(ほぼ一択)にお亡くなりになっていただくのですが

SC3000Cartcase1.jpg

SC3000Cartcase2.jpg

SC3000Cartcase3.jpg

埋め込みが出来ないので

リンク先で観てね


http://youtu.be/pZ97GB6fhA8


失礼、リンク間違ってました

http://www.youtube.com/watch?v=Q_jy6Rr9jHU&feature=share&list=ULQ_jy6Rr9jHU

テーマ : ゲーム動画
ジャンル : ゲーム

tag : SG-1000

プロフィール

tumaguro

Author:tumaguro

最新記事
最新コメント
最新トラックバック
月別アーカイブ
カテゴリ
検索フォーム
RSSリンクの表示
リンク
ブロとも申請フォーム

この人とブロともになる

QRコード
QRコード